Witamy Guest (Zaloguj) Strona Główna Kontakt Aktywacja/Wsparcie Regulamin
User: Hasło:
Stwórz konto Odzyskiwanie hasła

Kategorie
Filmy :
 » DVD-R1908  
 » VCD/SVCD76  
 » BluRay/x2645253  
 » DivX/XviD64254  
 » Filmy ENG524  
 » RMVB6127  
 » HD0  
 » 3D16  
Seriale :
 » Seriale Polskie2719  
 » Seriale Zagraniczne17038  
Dla Dzieci :
 » Bajki Pl/Eng1194  
Anime :
 » Anime Pl139  
 » Anime1265  
Muzyka :
 » Muzyka Polska/Zagraniczna17331  
 » Soundtracki299  
 » Teledyski/Koncerty1991  
Gry :
 » Gry PC11313  
 » Gry PS2/PS3/PSP1157  
 » Gry Xbox1154  
 » Gry - Inne Konsole456  
GSM/PDA :
 » Tapety GSM/PDA103  
 » Programy GSM/PDA382  
 » Filmy GSM/PDA122  
 » Dzwonki GSM/PDA110  
 » Gry GSM/PDA238  
Ksiazki/Czasopisma :
 » E-Booki9494  
 » Audio-Booki775  
 » Czasopisma1059  
 » Komiksy834  
Programy :
 » Windows11215  
 » Linux474  
 » Macintosh97  
Inne :
 » Tapety2394  
 » Śmieszne80  
 » Sport1175  
 » Pozostale246  
Erotyka :
 » Czasopisma125  
 » Zdjęcia 1531  
 » Filmy46964  
 » Gry 68  
 » Hentai+1853  

Legion samobójców 3D Suicide Squad *2016* [Theatrical Cut] [1080p 3D Half Over Under TRUE HD ATMOS AC3 BluRay x264] [Dubbing PL]

Kategoria: 3D
Wystawil: 
Data: 18/12/2016
Rozmiar: 13.94 GB
Seedow: 21
Leecherow: 3

Uaktualnij


Pobierz Torrent
Film w wersji 3D Half Over-Under.
Do odtworzenia filmu WYMAGANY odpowiedni sprzęt (TV 3D)
=========================================

Kopia mini-HD 1080p = 3,95 GB

gatunek: Akcja
produkcja: Kanada,USA
premiera: 5 sierpnia 2016 (Polska) 5 lipca 2016 (świat)
reżyseria: David Ayer
scenariusz: David Ayer

http://imdb.com/title/tt1386697/

OBSADA:

Marek Bukowski ... Deadshot (polski dubbing)
Adam Szyszkowski ... Rick Flag (polski dubbing)
Anna Smołowik ... Harley Quinn (polski dubbing)
Danuta Stenka ... Amanda Waller (polski dubbing)
Borys Szyc ... Joker (polski dubbing)
Leszek Lichota ... Boomerang (polski dubbing)
Karol Wróblewski ... Diablo (polski dubbing)

OPIS

Jak dobrze być złym… Zebrać drużynę złożoną z najbardziej niebezpiecznych pojmanych superprzestępców. Następnie przekazać im najpotężniejszą broń, jaką dysponuje rząd. Wreszcie wysłać ich na misję, której celem jest pokonanie tajemniczego, nieprzeniknionego bytu. Amanda Waller, oficer amerykańskiego wywiadu, doszła do wniosku, że do takiego zadania nada się jedynie zbieranina łotrów, którzy nie mają absolutnie nic do stracenia.
Co zrobi Legion Samobójców, gdy jego członkowie zorientują się, że nie zostali wybrani dlatego, iż mają szansę wygrać, ale dlatego, że nikt nie będzie ich żałował, gdy poniosą klęskę? Czy dadzą z siebie wszystko, choćby mieli zginąć, czy będą walczyć o własne przetrwanie?

Storyline:

It feels good to be bad...Assemble a team of the world's most dangerous, incarcerated Super Villains, provide them with the most powerful arsenal at the government's disposal, and send them off on a mission to defeat an enigmatic, insuperable entity. U.S. intelligence officer Amanda Waller has determined only a secretly convened group of disparate, despicable individuals with next to nothing to lose will do. However, once they realize they weren't picked to succeed but chosen for their patent culpability when they inevitably fail, will the Suicide Squad resolve to die trying, or decide it's every man for himself?

DANE TECH:

General
Format : Matroska
Format version : Version 2
File size : 3.96 GiB
Duration : 2h 2mn
Overall bit rate : 4 609 Kbps
Movie name : Suicide.Squad.2016.PL.3D.HOU.BDRip.1080p.Sonda
Encoded date : UTC 2016-12-01 15:12:32
Writing application : mkvmerge v5.7.0 ('The Whirlwind') built on Jul 8 2012 20:08:51
Writing library : libebml v1.2.3 + libmatroska v1.3.0

Video
ID : 1
Format : AVC
Format/INFO : Advanced Video Codec
Format profile : High@L4.1
Format settings, CABAC : Yes
Format settings, ReFrames : 4 frames
Codec ID : V_MPEG4/ISO/AVC
Duration : 2h 2mn
Bit rate : 3 750 Kbps
Width : 1 920 pixels
Height : 1 080 pixels
Display aspect ratio : 16:9 (2.39:1)
Frame rate mode : Constant
Frame rate : 23.976 fps
Color space : YUV
Chroma subsampling : 4:2:0
Bit depth : 8 bits
Scan type : Progressive
Bits/(Pixel*Frame) : 0.075
Stream size : 3.16 GiB (80%)
Title : Rip by Sonda
Writing library : x264
Encoding settings : cabac=1 / ref=4 / deblock=1:-1:-1 / rc=2pass
Default : Yes
Forced : No

Audio #1
ID : 2
Format : AC-3
Format/INFO : Audio Coding 3
Mode extension : CM (complete main)
Format settings, Endianness : Big
Codec ID : A_AC3
Duration : 2h 2mn
Bit rate mode : Constant
Bit rate : 448 Kbps
Channel count : 6 channels
Channel positions : Front: L C R, Side: L R, LFE
Sampling rate : 48.0 KHz
Bit depth : 16 bits
Compression mode : Lossy
Stream size : 394 MiB (10%)
Title : AC3 5.1 Dubbing PL
Language : Polish
Default : Yes
Forced : Yes

Audio #2
ID : 3
Format : AC-3
Format/INFO : Audio Coding 3
Mode extension : CM (complete main)
Format settings, Endianness : Big
Codec ID : A_AC3
Duration : 2h 2mn
Bit rate mode : Constant
Bit rate : 384 Kbps
Channel count : 6 channels
Channel positions : Front: L C R, Side: L R, LFE
Sampling rate : 48.0 KHz
Bit depth : 16 bits
Compression mode : Lossy
Stream size : 338 MiB (8%)
Title : AC3 5.1 ENG
Language : English
Default : No
Forced : No

Text #1
ID : 4
Format : UTF-8
Codec ID : S_TEXT/UTF8
Codec ID/INFO : UTF-8 Plain Text
Title : napisy PL 2D.srt
Language : Polish
Default : No
Forced : No

Text #2
ID : 5
Format : UTF-8
Codec ID : S_TEXT/UTF8
Codec ID/INFO : UTF-8 Plain Text
Title : napis ENG 2D.srt
Language : English
Default : No
Forced : No

Text #3
ID : 6
Format : PGS
Muxing mode : zlib
Codec ID : S_HDMV/PGS
Codec ID/INFO : The same subtitle format used on BDs/HD-DVDs
Title : napisy PL 3D.sup
Language : Polish
Default : No
Forced : No

Text #4
ID : 7
Format : PGS
Muxing mode : zlib
Codec ID : S_HDMV/PGS
Codec ID/INFO : The same subtitle format used on BDs/HD-DVDs
Title : napisy ENG 3D.sup
Language : English
Default : No
Forced : No

Source:
A/V- BD3D CEE -HDCLUB
Thanks - Sonda
Szczegoly torrenta
Info Hash
b252efa8f073fb32735fb7da2efd2e22a93d53ca
Tracker
http://agusiq-Polskie-Torrenty.com.pl:6969/announce [EXTERNAL]
Uaktualnienie
18/01/2017 20:19:15 (Jezeli nie widac seeda kliknij na [uaktualnij] by odswiezyc statystyki).
Pokaz/Ukryj Pliki:
1 file
Komentarze


Brak komentarzy...


Wstecz