Witamy Guest (Zaloguj) Strona Główna Kontakt Aktywacja/Wsparcie Regulamin
User: Hasło:
Stwórz konto Odzyskiwanie hasła

Kategorie
Filmy :
 » DVD-R1908  
 » VCD/SVCD76  
 » BluRay/x2645253  
 » DivX/XviD64254  
 » Filmy ENG524  
 » RMVB6127  
 » HD0  
 » 3D16  
Seriale :
 » Seriale Polskie2719  
 » Seriale Zagraniczne17038  
Dla Dzieci :
 » Bajki Pl/Eng1194  
Anime :
 » Anime Pl139  
 » Anime1265  
Muzyka :
 » Muzyka Polska/Zagraniczna17331  
 » Soundtracki299  
 » Teledyski/Koncerty1991  
Gry :
 » Gry PC11313  
 » Gry PS2/PS3/PSP1157  
 » Gry Xbox1154  
 » Gry - Inne Konsole456  
GSM/PDA :
 » Tapety GSM/PDA103  
 » Programy GSM/PDA382  
 » Filmy GSM/PDA122  
 » Dzwonki GSM/PDA110  
 » Gry GSM/PDA238  
Ksiazki/Czasopisma :
 » E-Booki9494  
 » Audio-Booki775  
 » Czasopisma1059  
 » Komiksy834  
Programy :
 » Windows11215  
 » Linux474  
 » Macintosh97  
Inne :
 » Tapety2394  
 » Śmieszne80  
 » Sport1175  
 » Pozostale246  
Erotyka :
 » Czasopisma125  
 » Zdjęcia 1531  
 » Filmy46964  
 » Gry 68  
 » Hentai+1853  

Ghosts of the Abyss 3D [2003][BRRip 1080p x264 by alE13 AC3] [Napisy PL]

Kategoria: 3D
Wystawil: 
Data: 10/07/2016
Rozmiar: 7.89 GB
Seedow: 0
Leecherow: 0

Uaktualnij


Pobierz Torrent
Film w wersji 3D Half-Over/Under.

reżyseria: James Cameron
gatunek: Dokumentalny
produkcja: USA
premiera: 31-03-2003
muzyka: Joel McNeely, Lisa Torban
zdjęcia: D.J. Roller
czas: 1h 0mn

James Cameron and Bill Paxton, director and actor of the 1997 film Titanic, travel to the final
undersea resting place of the ill-fated ship of dreams.

Zrealizowany w technice 3D dokumentalny zapis sześciotygodniowej podwodnej ekspedycji do wraku Titanika.

Bill Paxton, James Cameron, Lori Johnston, Lewis Abernathy

Ghosts of the Abyss 3D (2003)-*censored*.mkv
Format : Matroska
Format version : Version 4 / Version 2
File size : 7.81 GiB
Duration : 1h 0mn
Overall bit rate : 18.4 Mbps
Movie name : Ghosts of the Abyss 3D (2003)-*censored*
Encoded date : UTC 2016-05-31 05:48:20
Writing application : mkvmerge v8.1.0 ('Psychedelic Postcard') 64bit
Writing library : libebml v1.3.1 + libmatroska v1.4.2

Video
ID : 1
Format : AVC
Format/INFO : Advanced Video Codec
Format profile : High@L4.1
Format settings, CABAC : Yes
Format settings, ReFrames : 2 frames
Codec ID : V_MPEG4/ISO/AVC
Duration : 1h 0mn
Bit rate : 17.7 Mbps
Width : 1 920 pixels
Height : 1 080 pixels
Display aspect ratio : 16:9
Frame rate mode : Constant
Frame rate : 23.976 (24000/1001) fps
Color space : YUV
Chroma subsampling : 4:2:0
Bit depth : 8 bits
Scan type : Progressive
Bits/(Pixel*Frame) : 0.357
Stream size : 7.53 GiB (96%)
Title : Ghosts of the Abyss 3D (2003)-*censored*
Writing library : x264 core 142
Default : Yes
Forced : No
Color range : Limited
Color primaries : BT.709
Transfer characteristics : BT.709
Matrix coefficients : BT.709

Audio
ID : 2
Format : AC-3
Format/INFO : Audio Coding 3
Mode extension : CM (complete main)
Format settings, Endianness : Big
Codec ID : A_AC3
Duration : 1h 0mn
Bit rate mode : Constant
Bit rate : 640 Kbps
Channel(s) : 6 channels
Channel positions : Front: L C R, Side: L R, LFE
Sampling rate : 48.0 KHz
Frame rate : 31.250 fps (1536 spf)
Compression mode : Lossy
Stream size : 278 MiB (3%)
Title : Ghosts of the Abyss 3D (2003)-*censored*_AC3
Language : English
Default : No
Forced : No

Text #1
ID : 3
Format : VobSub
Muxing mode : zlib
Codec ID : S_VOBSUB
Codec ID/INFO : Picture based subtitle format used on DVDs
Duration : 58mn 37s
Bit rate : 11.5 Kbps
Count of elements : 862
Stream size : 4.84 MiB (0%)
Title : Ghosts of the Abyss 3D (2003)-*censored*
Language : Polish
Default : Yes
Forced : No

Text #2
ID : 4
Format : UTF-8
Codec ID : S_TEXT/UTF8
Codec ID/INFO : UTF-8 Plain Text
Duration : 58mn 37s
Bit rate : 78 bps
Count of elements : 862
Stream size : 33.6 KiB (0%)
Title : Ghosts of the Abyss 3D (2003)-*censored*
Language : Polish
Default : No
Forced : No
Szczegoly torrenta
Info Hash
a64a7647f94130e2bf2b4765ffc91258195da03c
Tracker
http://tracker.alePolskie-Torrenty.com.pl:2710/announce [EXTERNAL]
Uaktualnienie
18/01/2017 20:19:48 (Jezeli nie widac seeda kliknij na [uaktualnij] by odswiezyc statystyki).
Pokaz/Ukryj Pliki:
11 pliki
Komentarze


Brak komentarzy...


Wstecz