Witamy Guest (Zaloguj) Strona Główna Kontakt Aktywacja/Wsparcie Regulamin
User: Hasło:
Stwórz konto Odzyskiwanie hasła

Kategorie
Filmy :
 » DVD-R1908  
 » VCD/SVCD76  
 » BluRay/x2645253  
 » DivX/XviD64254  
 » Filmy ENG524  
 » RMVB6127  
 » HD0  
 » 3D16  
Seriale :
 » Seriale Polskie2719  
 » Seriale Zagraniczne17038  
Dla Dzieci :
 » Bajki Pl/Eng1194  
Anime :
 » Anime Pl139  
 » Anime1265  
Muzyka :
 » Muzyka Polska/Zagraniczna17331  
 » Soundtracki299  
 » Teledyski/Koncerty1991  
Gry :
 » Gry PC11313  
 » Gry PS2/PS3/PSP1157  
 » Gry Xbox1154  
 » Gry - Inne Konsole456  
GSM/PDA :
 » Tapety GSM/PDA103  
 » Programy GSM/PDA382  
 » Filmy GSM/PDA122  
 » Dzwonki GSM/PDA110  
 » Gry GSM/PDA238  
Ksiazki/Czasopisma :
 » E-Booki9494  
 » Audio-Booki775  
 » Czasopisma1059  
 » Komiksy834  
Programy :
 » Windows11215  
 » Linux474  
 » Macintosh97  
Inne :
 » Tapety2394  
 » Śmieszne80  
 » Sport1175  
 » Pozostale246  
Erotyka :
 » Czasopisma125  
 » Zdjęcia 1531  
 » Filmy46964  
 » Gry 68  
 » Hentai+1853  

Awantura o Basię S01E04 *1995* [TVRip Xvid up] [AC3] [Film PL]

Kategoria: Seriale Polskie
Wystawil: 
Data: 07/01/2017
Rozmiar: 156.81 MB
Seedow: 0
Leecherow: 0

Uaktualnij


Pobierz Torrent
=====================
INFO
================
produkcja: Polska
gatunek: Dla dzieci, Familijny
reżyseria Kazimierz Tarnas
scenariusz Tomasz Piotrowski, Kazimierz Tarnas
zdjęcia Grzegorz Kędzierski
muzyka Stanislas Syrewicz
czas trwania: 104 min

=====================
OPIS
====================
Pietnastoletnia Basia dowiaduje się, że państwo Olszowscy nie są jej prawdziwymi rodzicami. Dziewczyna pragnie dowiedziec się w jaki sposób trafiła do przybranej rodziny. Poszukiwanie tożsamości będzie przyczyną wielu awantur. W finale zwycięża miłość i przyjaźń.
=====================
OBSADA
====================
Hanna Śleszyńska : Marcysia
Anna Seniuk : Doktorowa Budzisz
Piotr Fronczewski : wujek Olszowski
Gustaw Holoubek : Profesor Somer
Radosław Pazura : aktor
Krzysztof Kowalewski : nauczyciel Geografii
Olgierd Łukaszewicz : Ojciec Basi
Jerzy Zelnik : Gaston Dumauriac
Kazimierz Kaczor : Doktor
Stanisława Celińska : Czerwony Kapelusz
Dorota Chotecka-Pazura : aktorka
Anna Powierza : Kicia
Maria Gładkowska : Stanisława Olszańska
Igor Śmiałowski : profesor Mendelsohn
Nina Roguż : koleżanka Basi

=====================
DANE TECHNICZNE
=====================

Format                         : AVI
Format/Info                    : Audio Video Interleave
File size                      : 148 MiB
Duration                       : 26mn 8s
Overall bit rate               : 790 Kbps

Video
ID                             : 0
Format                         : MPEG-4 Visual
Format settings, BVOP          : Yes
Format settings, QPel          : No
Format settings, GMC           : No warppoints
Format settings, Matrix        : Default (H.263)
Codec ID                       : DIVX
Codec ID/Info                  : Project Mayo
Codec ID/Hint                  : DivX 4
Duration                       : 26mn 8s
Bit rate                       : 673 Kbps
Width                          : 640 pixels
Height                         : 464 pixels
Display aspect ratio           : 1.379
Frame rate                     : 25.000 fps
Color space                    : YUV
Chroma subsampling             : 4:2:0
Bit depth                      : 8 bits
Scan type                      : Progressive
Compression mode               : Lossy
Bits/(Pixel*Frame)             : 0.091
Stream size                    : 126 MiB (85%)

Audio
ID                             : 1
Format                         : MPEG Audio
Format version                 : Version 1
Format profile                 : Layer 3
Codec ID                       : 55
Codec ID/Hint                  : MP3
Duration                       : 26mn 7s
Bit rate mode                  : Constant
Bit rate                       : 112 Kbps
Channel(s)                     : 2 channels
Sampling rate                  : 44.1 KHz
Compression mode               : Lossy
Stream size                    : 20.9 MiB (14%)
Alignment                      : Split accross interleaves
Interleave, duration           : 1000 ms (25.01 video frames)
Szczegoly torrenta
Info Hash
8e1c217cc0835311dc98fe634147a48983230fb8
Tracker
http://tracker.Polskie-Torrenty.com.pl:8089/announce [EXTERNAL]
Uaktualnienie
18/01/2017 20:20:42 (Jezeli nie widac seeda kliknij na [uaktualnij] by odswiezyc statystyki).
Pokaz/Ukryj Pliki:
1 file
Komentarze


Brak komentarzy...


Wstecz