Witamy Guest (Zaloguj) Strona Główna Kontakt Aktywacja/Wsparcie Regulamin
User: Hasło:
Stwórz konto Odzyskiwanie hasła

Kategorie
Filmy :
 » DVD-R1908  
 » VCD/SVCD76  
 » BluRay/x2645253  
 » DivX/XviD64254  
 » Filmy ENG524  
 » RMVB6127  
 » HD0  
 » 3D16  
Seriale :
 » Seriale Polskie2719  
 » Seriale Zagraniczne17038  
Dla Dzieci :
 » Bajki Pl/Eng1194  
Anime :
 » Anime Pl139  
 » Anime1265  
Muzyka :
 » Muzyka Polska/Zagraniczna17331  
 » Soundtracki299  
 » Teledyski/Koncerty1991  
Gry :
 » Gry PC11313  
 » Gry PS2/PS3/PSP1157  
 » Gry Xbox1154  
 » Gry - Inne Konsole456  
GSM/PDA :
 » Tapety GSM/PDA103  
 » Programy GSM/PDA382  
 » Filmy GSM/PDA122  
 » Dzwonki GSM/PDA110  
 » Gry GSM/PDA238  
Ksiazki/Czasopisma :
 » E-Booki9494  
 » Audio-Booki775  
 » Czasopisma1059  
 » Komiksy834  
Programy :
 » Windows11215  
 » Linux474  
 » Macintosh97  
Inne :
 » Tapety2394  
 » Śmieszne80  
 » Sport1175  
 » Pozostale246  
Erotyka :
 » Czasopisma125  
 » Zdjęcia 1531  
 » Filmy46964  
 » Gry 68  
 » Hentai+1853  

Niezłomny Unbroken *2014* [DVDRip RMVB Złośnicaa] [Lektor PL]

Kategoria: RMVB
Wystawil: 
Data: 03/12/2016
Rozmiar: 451.21 MB
Seedow: 3
Leecherow: 0

Uaktualnij


Pobierz Torrent
produkcja: USA
premiera: 17 listopada 2014 - Świat
gatunek: Biograficzny, Dramat, Wojenny
reżyseria: Angelina Jolie
scenariusz: Ethan Coen, Joel Coen

Jako chłopak Louis sprawiał mnóstwo kłopotów, ale za radą starszego brata skoncentrował się na bieganiu, co doprowadziło go do Olimpiady w Berlinie. Kiedy wybuchła II wojna światowa, Louis poszedł do wojska. Ocalawszy cudem z katastrofy lotniczej spędził wraz z dwoma towarzyszami broni 47 ciężkich dni dryfując po oceanie w maleńkiej tratwie. Wyłowiony przez japońską marynarkę wojenną trafił do obozu jenieckiego. Gdy rozpoznano w nim olimpijczyka, trafił w ręce sadystycznego oprawcy. Niewiarygodna i inspirująca prawdziwa historia o potędze ludzkiego ducha.

Jack O`Connell ... Louis Zamperini
Domhnall Gleeson ... Russell Allen "Phil" Phillips
Garrett Hedlund ... John Fitzgerald
Miyavi ... Mutsushiro Watanabe

Video
ID : 1
Format : RealVideo 4
Codec ID : RV40
Codec ID/INFO : Based on AVC (H.264), Real Player 9
Duration : 2h 17mn
Bit rate : 382 Kbps
Width : 640 pixels
Height : 272 pixels
Display aspect ratio : 2.35:1
Frame rate : 23.976 fps
Bits/(Pixel*Frame) : 0.091
Stream size : 375 MiB (83%)

Audio
ID : 0
Format : Cooker
Codec ID : cook
Codec ID/INFO : Based on G.722.1, Real Player 6
Duration : 2h 17mn
Bit rate : 64.1 Kbps
Channel count : 2 channels
Sampling rate : 44.1 KHz
Bit depth : 16 bits
Stream size : 63.0 MiB (14%)
Szczegoly torrenta
Info Hash
46ad8aa3966219ddd11c351459fa92241df20a37
Tracker
http://tracker.Polskie-Torrenty.com.pl:8089/announce [EXTERNAL]
Uaktualnienie
18/01/2017 20:20:35 (Jezeli nie widac seeda kliknij na [uaktualnij] by odswiezyc statystyki).
Pokaz/Ukryj Pliki:
5 pliki
Komentarze


Brak komentarzy...


Wstecz