Witamy Guest (Zaloguj) Strona Główna Kontakt Aktywacja/Wsparcie Regulamin
User: Hasło:
Stwórz konto Odzyskiwanie hasła

Kategorie
Filmy :
 » Filmy DVD-R1160  
 » Filmy VCD/SVCD2  
 » Filmy BluRay/x264/HDTV5251  
 » Filmy DivX/XviD51751  
 » Filmy RMVB1211  
 » Filmy ENG2367  
 » Filmy 3D31  
Seriale :
 » Seriale Polskie2626  
 » Seriale Zagraniczne15850  
 » Seriale ENG3508  
Anime :
 » Anime Pl5  
 » Anime87  
Dla Dzieci :
 » Bajki Pl/Eng408  
Muzyka :
 » Muzyka Polska/Zagraniczna9356  
 » Soundtracki22  
 » Teledyski/Koncerty502  
Gry :
 » Gry PC9399  
 » Gry PS2/PS3/PSP389  
 » Gry Xbox288  
 » Gry - Inne Konsole38  
GSM/PDA :
 » Tapety GSM/PDA4  
 » Programy GSM/PDA257  
 » Filmy GSM/PDA1  
 » Dzwonki GSM/PDA9  
 » Gry GSM/PDA68  
Ksiazki/Czasopisma :
 » E-Booki8921  
 » Audio-Booki560  
 » Czasopisma613  
 » Komiksy753  
Programy :
 » Windows3597  
 » Linux103  
 » Macintosh18  
Inne :
 » Śmieszne29  
 » Tapety104  
 » Sport516  
 » Pozostale99  
Erotyka :
 » Czasopisma26  
 » Zdjęcia 732  
 » Filmy69832  
 » Gry 12  
 » Hentai+180  

Niezłomny Unbroken *2014* [DVDRip RMVB Złośnicaa] [Lektor PL]

Kategoria: Filmy RMVB
Wystawil: 
Data: 03/12/2016
Rozmiar: 451.21 MB
Seedow: 3
Leecherow: 0

Uaktualnij


Pobierz Torrent
produkcja: USA
premiera: 17 listopada 2014 - Świat
gatunek: Biograficzny, Dramat, Wojenny
reżyseria: Angelina Jolie
scenariusz: Ethan Coen, Joel Coen

Jako chłopak Louis sprawiał mnóstwo kłopotów, ale za radą starszego brata skoncentrował się na bieganiu, co doprowadziło go do Olimpiady w Berlinie. Kiedy wybuchła II wojna światowa, Louis poszedł do wojska. Ocalawszy cudem z katastrofy lotniczej spędził wraz z dwoma towarzyszami broni 47 ciężkich dni dryfując po oceanie w maleńkiej tratwie. Wyłowiony przez japońską marynarkę wojenną trafił do obozu jenieckiego. Gdy rozpoznano w nim olimpijczyka, trafił w ręce sadystycznego oprawcy. Niewiarygodna i inspirująca prawdziwa historia o potędze ludzkiego ducha.

Jack O`Connell ... Louis Zamperini
Domhnall Gleeson ... Russell Allen "Phil" Phillips
Garrett Hedlund ... John Fitzgerald
Miyavi ... Mutsushiro Watanabe

Video
ID : 1
Format : RealVideo 4
Codec ID : RV40
Codec ID/INFO : Based on AVC (H.264), Real Player 9
Duration : 2h 17mn
Bit rate : 382 Kbps
Width : 640 pixels
Height : 272 pixels
Display aspect ratio : 2.35:1
Frame rate : 23.976 fps
Bits/(Pixel*Frame) : 0.091
Stream size : 375 MiB (83%)

Audio
ID : 0
Format : Cooker
Codec ID : cook
Codec ID/INFO : Based on G.722.1, Real Player 6
Duration : 2h 17mn
Bit rate : 64.1 Kbps
Channel count : 2 channels
Sampling rate : 44.1 KHz
Bit depth : 16 bits
Stream size : 63.0 MiB (14%)
Szczegoly torrenta
Info Hash
46ad8aa3966219ddd11c351459fa92241df20a37
Tracker
http://tracker.Polskie-Torrenty.com.pl:8089/announce [EXTERNAL]
Uaktualnienie
26/05/2017 03:34:47 (Jezeli nie widac seeda kliknij na [uaktualnij] by odswiezyc statystyki).
Pokaz/Ukryj Pliki:
5 pliki
Komentarze


Brak komentarzy...


Wstecz