Witamy Guest (Zaloguj) Strona Główna Kontakt Aktywacja/Wsparcie Regulamin
User: Hasło:
Stwórz konto Odzyskiwanie hasła

Kategorie
Filmy :
 » Filmy DVD-R1317  
 » Filmy VCD/SVCD3  
 » Filmy BluRay/x264/HDTV8109  
 » Filmy DivX/XviD62621  
 » Filmy RMVB1228  
 » Filmy ENG2403  
 » Filmy 3D38  
Seriale :
 » Seriale Polskie3454  
 » Seriale Zagraniczne22304  
 » Seriale ENG3514  
Anime :
 » Anime Pl16  
 » Anime87  
Dla Dzieci :
 » Bajki Pl/Eng495  
Muzyka :
 » Muzyka Polska/Zagraniczna10774  
 » Soundtracki28  
 » Teledyski/Koncerty563  
Gry :
 » Gry PC12387  
 » Gry PS2/PS3/PSP397  
 » Gry Xbox294  
 » Gry - Inne Konsole38  
GSM/PDA :
 » Tapety GSM/PDA4  
 » Programy GSM/PDA279  
 » Filmy GSM/PDA1  
 » Dzwonki GSM/PDA9  
 » Gry GSM/PDA70  
Ksiazki/Czasopisma :
 » E-Booki10233  
 » Audio-Booki1137  
 » Czasopisma613  
 » Komiksy828  
Programy :
 » Windows4286  
 » Linux103  
 » Macintosh18  
Inne :
 » Śmieszne34  
 » Tapety105  
 » Sport716  
 » Pozostale105  
Erotyka :
 » Czasopisma26  
 » Zdjęcia 854  
 » Filmy110005  
 » Gry 14  
 » Hentai+181  

Niezłomny Unbroken *2014* [DVDRip RMVB Złośnicaa] [Lektor PL]

Kategoria: Filmy RMVB
Wystawil: 
Data: 03/12/2016
Rozmiar: 451.21 MB
Seedow: 0
Leecherow: 0

Uaktualnij


Pobierz Torrent
produkcja: USA
premiera: 17 listopada 2014 - Świat
gatunek: Biograficzny, Dramat, Wojenny
reżyseria: Angelina Jolie
scenariusz: Ethan Coen, Joel Coen

Jako chłopak Louis sprawiał mnóstwo kłopotów, ale za radą starszego brata skoncentrował się na bieganiu, co doprowadziło go do Olimpiady w Berlinie. Kiedy wybuchła II wojna światowa, Louis poszedł do wojska. Ocalawszy cudem z katastrofy lotniczej spędził wraz z dwoma towarzyszami broni 47 ciężkich dni dryfując po oceanie w maleńkiej tratwie. Wyłowiony przez japońską marynarkę wojenną trafił do obozu jenieckiego. Gdy rozpoznano w nim olimpijczyka, trafił w ręce sadystycznego oprawcy. Niewiarygodna i inspirująca prawdziwa historia o potędze ludzkiego ducha.

Jack O`Connell ... Louis Zamperini
Domhnall Gleeson ... Russell Allen "Phil" Phillips
Garrett Hedlund ... John Fitzgerald
Miyavi ... Mutsushiro Watanabe

Video
ID : 1
Format : RealVideo 4
Codec ID : RV40
Codec ID/INFO : Based on AVC (H.264), Real Player 9
Duration : 2h 17mn
Bit rate : 382 Kbps
Width : 640 pixels
Height : 272 pixels
Display aspect ratio : 2.35:1
Frame rate : 23.976 fps
Bits/(Pixel*Frame) : 0.091
Stream size : 375 MiB (83%)

Audio
ID : 0
Format : Cooker
Codec ID : cook
Codec ID/INFO : Based on G.722.1, Real Player 6
Duration : 2h 17mn
Bit rate : 64.1 Kbps
Channel count : 2 channels
Sampling rate : 44.1 KHz
Bit depth : 16 bits
Stream size : 63.0 MiB (14%)
Szczegoly torrenta
Info Hash
46ad8aa3966219ddd11c351459fa92241df20a37
Tracker
http://tracker.Polskie-Torrenty.com.pl:8089/announce [EXTERNAL]
Uaktualnienie
22/01/2018 17:49:04 (Jezeli nie widac seeda kliknij na [uaktualnij] by odswiezyc statystyki).
Pokaz/Ukryj Pliki:
5 pliki
Komentarze


Brak komentarzy...


Wstecz