Witamy Guest (Zaloguj) Strona Główna Kontakt Aktywacja/Wsparcie Regulamin
User: Hasło:
Stwórz konto Odzyskiwanie hasła

Kategorie
Filmy :
 » Filmy DVD-R1143  
 » Filmy VCD/SVCD2  
 » Filmy BluRay/x264/HDTV5020  
 » Filmy DivX/XviD50562  
 » Filmy RMVB1211  
 » Filmy ENG2361  
 » Filmy 3D31  
Seriale :
 » Seriale Polskie2499  
 » Seriale Zagraniczne15213  
 » Seriale ENG3508  
Anime :
 » Anime Pl5  
 » Anime87  
Dla Dzieci :
 » Bajki Pl/Eng393  
Muzyka :
 » Muzyka Polska/Zagraniczna9320  
 » Soundtracki22  
 » Teledyski/Koncerty500  
Gry :
 » Gry PC9024  
 » Gry PS2/PS3/PSP389  
 » Gry Xbox288  
 » Gry - Inne Konsole38  
GSM/PDA :
 » Tapety GSM/PDA4  
 » Programy GSM/PDA256  
 » Filmy GSM/PDA1  
 » Dzwonki GSM/PDA9  
 » Gry GSM/PDA68  
Ksiazki/Czasopisma :
 » E-Booki8859  
 » Audio-Booki535  
 » Czasopisma613  
 » Komiksy723  
Programy :
 » Windows3475  
 » Linux103  
 » Macintosh18  
Inne :
 » Śmieszne28  
 » Tapety102  
 » Sport480  
 » Pozostale99  
Erotyka :
 » Czasopisma26  
 » Zdjęcia 730  
 » Filmy66396  
 » Gry 12  
 » Hentai+180  

Awantura o Basię S01E08 *1995* [TVRip Xvid up] [AC3] [Film PL]

Kategoria: Seriale Polskie
Wystawil: 
Data: 08/01/2017
Rozmiar: 161.30 MB
Seedow: 1
Leecherow: 0

Uaktualnij


Pobierz Torrent
=====================
INFO
================
produkcja: Polska
gatunek: Dla dzieci, Familijny
reżyseria Kazimierz Tarnas
scenariusz Tomasz Piotrowski, Kazimierz Tarnas
zdjęcia Grzegorz Kędzierski
muzyka Stanislas Syrewicz
czas trwania: 104 min

=====================
OPIS
====================
Piętnastoletnia Basia dowiaduje się, że państwo Olszowscy nie są jej prawdziwymi rodzicami. Dziewczyna pragnie dowiedziec się w jaki sposób trafiła do przybranej rodziny. Poszukiwanie tożsamości będzie przyczyną wielu awantur. W finale zwycięża miłość i przyjaźń.
=====================
OBSADA
====================
Hanna Śleszyńska : Marcysia
Anna Seniuk : Doktorowa Budzisz
Piotr Fronczewski : wujek Olszowski
Gustaw Holoubek : Profesor Somer
Radosław Pazura : aktor
Krzysztof Kowalewski : nauczyciel Geografii
Olgierd Łukaszewicz : Ojciec Basi
Jerzy Zelnik : Gaston Dumauriac
Kazimierz Kaczor : Doktor
Stanisława Celińska : Czerwony Kapelusz
Dorota Chotecka-Pazura : aktorka
Anna Powierza : Kicia
Maria Gładkowska : Stanisława Olszańska
Igor Śmiałowski : profesor Mendelsohn
Nina Roguż : koleżanka Basi

=====================
DANE TECHNICZNE
=====================

Format                         : AVI
Format/Info                    : Audio Video Interleave
File size                      : 148 MiB
Duration                       : 26mn 8s
Overall bit rate               : 790 Kbps

Video
ID                             : 0
Format                         : MPEG-4 Visual
Format settings, BVOP          : Yes
Format settings, QPel          : No
Format settings, GMC           : No warppoints
Format settings, Matrix        : Default (H.263)
Codec ID                       : DIVX
Codec ID/Info                  : Project Mayo
Codec ID/Hint                  : DivX 4
Duration                       : 26mn 8s
Bit rate                       : 673 Kbps
Width                          : 640 pixels
Height                         : 464 pixels
Display aspect ratio           : 1.379
Frame rate                     : 25.000 fps
Color space                    : YUV
Chroma subsampling             : 4:2:0
Bit depth                      : 8 bits
Scan type                      : Progressive
Compression mode               : Lossy
Bits/(Pixel*Frame)             : 0.091
Stream size                    : 126 MiB (85%)

Audio
ID                             : 1
Format                         : MPEG Audio
Format version                 : Version 1
Format profile                 : Layer 3
Codec ID                       : 55
Codec ID/Hint                  : MP3
Duration                       : 26mn 7s
Bit rate mode                  : Constant
Bit rate                       : 112 Kbps
Channel(s)                     : 2 channels
Sampling rate                  : 44.1 KHz
Compression mode               : Lossy
Stream size                    : 20.9 MiB (14%)
Alignment                      : Split accross interleaves
Interleave, duration           : 1000 ms (25.01 video frames)
Szczegoly torrenta
Info Hash
3a8de1183a67ee2d326037da5e92a777010cf7b7
Tracker
http://tracker.Polskie-Torrenty.com.pl:8089/announce [EXTERNAL]
Uaktualnienie
29/04/2017 03:43:35 (Jezeli nie widac seeda kliknij na [uaktualnij] by odswiezyc statystyki).
Pokaz/Ukryj Pliki:
1 file
Komentarze


Brak komentarzy...


Wstecz