Witamy Guest (Zaloguj) Strona Główna Kontakt Aktywacja/Wsparcie Regulamin
User: Hasło:
Stwórz konto Odzyskiwanie hasła

Kategorie
Filmy :
 » Filmy DVD-R1143  
 » Filmy VCD/SVCD2  
 » Filmy BluRay/x264/HDTV5020  
 » Filmy DivX/XviD50562  
 » Filmy RMVB1211  
 » Filmy ENG2361  
 » Filmy 3D31  
Seriale :
 » Seriale Polskie2499  
 » Seriale Zagraniczne15213  
 » Seriale ENG3508  
Anime :
 » Anime Pl5  
 » Anime87  
Dla Dzieci :
 » Bajki Pl/Eng393  
Muzyka :
 » Muzyka Polska/Zagraniczna9320  
 » Soundtracki22  
 » Teledyski/Koncerty500  
Gry :
 » Gry PC9024  
 » Gry PS2/PS3/PSP389  
 » Gry Xbox288  
 » Gry - Inne Konsole38  
GSM/PDA :
 » Tapety GSM/PDA4  
 » Programy GSM/PDA256  
 » Filmy GSM/PDA1  
 » Dzwonki GSM/PDA9  
 » Gry GSM/PDA68  
Ksiazki/Czasopisma :
 » E-Booki8859  
 » Audio-Booki535  
 » Czasopisma613  
 » Komiksy723  
Programy :
 » Windows3475  
 » Linux103  
 » Macintosh18  
Inne :
 » Śmieszne28  
 » Tapety102  
 » Sport480  
 » Pozostale99  
Erotyka :
 » Czasopisma26  
 » Zdjęcia 730  
 » Filmy66396  
 » Gry 12  
 » Hentai+180  

Noc W Muzeum: Tajemnica Grobowca Night At The Museum: Secret Of The Tomb *2014* [DVDRip RMVB Złośnicaa] [Dubbing PL]

Kategoria: Filmy RMVB
Wystawil: 
Data: 03/12/2016
Rozmiar: 322.10 MB
Seedow: 1
Leecherow: 0

Uaktualnij


Pobierz Torrent
produkcja: USA, Wielka Brytania
premiera: 17 grudnia 2014 - Świat
gatunek: Familijny, Fantasy, Komedia
reżyseria: Shawn Levy
scenariusz: David Guion, Michael Handelman

Gdy Larry odkrywa, że jego przyjaciele, czyli eksponaty nowojorskiego Muzeum Historii Naturalnej, dziwnie się zachowują, postanawia odkryć, co jest tego przyczyną. Okazuje się, że tablica, dzięki której eksponaty ożywają, niszczeje i można ją uratować tylko w British Museum. Larry i jego syn Nick wyruszają do Londynu, by rozwikłać tajemnicę tablicy.

Ben Stiller ... Larry Daley - Laaa
Robin Williams ... Teddy Roosevelt - Garuda
Owen Wilson ... Jedediah
Steve Coogan ... Octavius

Video
ID : 1
Format : RealVideo 4
Codec ID : RV40
Codec ID/INFO : Based on AVC (H.264), Real Player 9
Duration : 1h 37mn
Bit rate : 381 Kbps
Width : 640 pixels
Height : 352 pixels
Display aspect ratio : 16:9
Frame rate : 23.976 fps
Bits/(Pixel*Frame) : 0.071
Stream size : 267 MiB (83%)

Audio
ID : 0
Format : Cooker
Codec ID : cook
Codec ID/INFO : Based on G.722.1, Real Player 6
Duration : 1h 37mn
Bit rate : 64.1 Kbps
Channel count : 2 channels
Sampling rate : 44.1 KHz
Bit depth : 16 bits
Stream size : 44.8 MiB (14%)
Szczegoly torrenta
Info Hash
1d8a36fa2c1a7e7694d22cf6b15bf3c5636131e6
Tracker
http://tracker.Polskie-Torrenty.com.pl:8089/announce [EXTERNAL]
Uaktualnienie
29/04/2017 03:42:16 (Jezeli nie widac seeda kliknij na [uaktualnij] by odswiezyc statystyki).
Pokaz/Ukryj Pliki:
5 pliki
Komentarze


Brak komentarzy...


Wstecz