Witamy Guest (Zaloguj) Strona Główna Kontakt Aktywacja/Wsparcie Regulamin
User: Hasło:
Stwórz konto Odzyskiwanie hasła

Kategorie
Filmy :
 » DVD-R1908  
 » VCD/SVCD76  
 » BluRay/x2645253  
 » DivX/XviD64251  
 » Filmy ENG524  
 » RMVB6127  
 » HD0  
 » 3D16  
Seriale :
 » Seriale Polskie2718  
 » Seriale Zagraniczne17036  
Dla Dzieci :
 » Bajki Pl/Eng1194  
Anime :
 » Anime Pl139  
 » Anime1265  
Muzyka :
 » Muzyka Polska/Zagraniczna17330  
 » Soundtracki299  
 » Teledyski/Koncerty1991  
Gry :
 » Gry PC11313  
 » Gry PS2/PS3/PSP1157  
 » Gry Xbox1154  
 » Gry - Inne Konsole456  
GSM/PDA :
 » Tapety GSM/PDA103  
 » Programy GSM/PDA382  
 » Filmy GSM/PDA122  
 » Dzwonki GSM/PDA110  
 » Gry GSM/PDA238  
Ksiazki/Czasopisma :
 » E-Booki9494  
 » Audio-Booki774  
 » Czasopisma1059  
 » Komiksy834  
Programy :
 » Windows11214  
 » Linux474  
 » Macintosh97  
Inne :
 » Tapety2394  
 » Śmieszne80  
 » Sport1175  
 » Pozostale246  
Erotyka :
 » Czasopisma125  
 » Zdjęcia 1531  
 » Filmy46838  
 » Gry 68  
 » Hentai+1853  

Faceci w czerni 3 Men In Black 3 [ 3gp] [ 2012 ] [Lektor PL ] [jazgaż]

Kategoria: Filmy GSM/PDA
Wystawil:  Anonimowy
Data: 19/12/2013
Rozmiar: 253.66 MB
Seedow: 0
Leecherow: 0

Uaktualnij


Pobierz Torrent

produkcja: USA
premiera: 25 maja 2012 (Polska) 20 maja 2012 (świat)
reżyseria: Barry Sonnenfeld
scenariusz: Etan Cohen, David Koepp
czas trwania: 1 godz. 46 min.
gatunek: Komedia, Akcja, Sci-Fi

opis:

Kolejna część kultowej serii o agentach specjalnej jednostki rządowej. Zadaniem jednostki jest zajmowanie się kontaktami z Obcymi i utrzymywaniem społeczeństwa w nieświadomości, jak częste są wizyty przybyszów z kosmosu... Pojawiają się bez zapowiedzi, znikają bez śladu. Ich znakiem rozpoznawczym są czarne garnitury i okulary... a także cały zestaw kosmicznych gadżetów. Tym razem dwaj najbardziej znani agenci MIB zmierzą się z kosmitami w niezwykłym śledztwie pokonującym bariery nie tylko przestrzeni, ale i czasu. Agenci w czerni bronią Ziemi przed kosmitami już po raz trzeci - dwie pierwsze części cyklu zyskały sobie na całym świecie rzeszę wiernych fanów, zarabiając odpowiednio 600 i 400 milionów dolarów.

obsada:

Will Smith...Agent J
Tommy Lee Jones...Agent K
Josh Brolin...Młody Agent K
Jemaine Clement...Boris Bestia
Emma Thompson...Agentka O
Michael Stuhlbarg...Griffin
Mike Colter...Pułkownik
Nicole Scherzinger...Dziewczyna Borisa
Michael Chernus...Jeffrey Price
Alice Eve...Młoda Agentka O

dane techn:

General
Complete name                            : F:\Vuze Downloads\[  Darmowe-ToRenty.pl  ] Faceci w czerni 3 - Men in Black III (2012) [BDRip] [XviD-BiDA] [Lektor PL]\Men.In.Black.3.2012.PL.3gp[jazgaż]\Men.In.Black.3.2012.PL.3gp
Format                                   : MPEG-4
Format profile                           : 3GPP Media Release 4
Codec ID                                 : 3gp4
File size                                : 254 MiB
Duration                                 : 1h 45mn
Overall bit rate                         : 335 Kbps
Encoded date                             : UTC 2013-12-19 10:29:04
Tagged date                              : UTC 2013-12-19 10:29:04

Video
ID                                       : 1
Format                                   : H.263
Format profile                           : BaseLine@1.0
Codec ID                                 : s263
Duration                                 : 1h 45mn
Bit rate                                 : 320 Kbps
Width                                    : 352 pixels
Height                                   : 288 pixels
Display aspect ratio                     : 1.85:1
Frame rate mode                          : Constant
Frame rate                               : 18.000 fps
Standard                                 : PAL
Compression mode                         : Lossy
Bits/(Pixel*Frame)                       : 0.175
Stream size                              : 242 MiB (95%)
Writing library                          : FFMpeg
Encoded date                             : UTC 2013-12-19 10:29:04
Tagged date                              : UTC 2013-12-19 10:29:04

Audio
ID                                       : 2
Format                                   : AMR
Format/Info                              : Adaptive Multi-Rate
Format profile                           : Narrow band
Codec ID                                 : samr
Duration                                 : 1h 45mn
Bit rate mode                            : Constant
Bit rate                                 : 12.8 Kbps
Channel(s)                               : 1 channel
Sampling rate                            : 8 000 Hz
Bit depth                                : 13 bits
Stream size                              : 9.68 MiB (4%)
Writing library                          : FFMpeg
Encoded date                             : UTC 2013-12-19 10:29:04
Tagged date                              : UTC 2013-12-19 10:29:04
Szczegoly torrenta
Info Hash
01c8f7baaa8ce1fd2fff38f74e03e1043d4b1a69
Tracker
http://tracker.ccc.de:80/announce [EXTERNAL]
Uaktualnienie
18/01/2017 09:58:46 (Jezeli nie widac seeda kliknij na [uaktualnij] by odswiezyc statystyki).
Pokaz/Ukryj Pliki:
3 pliki
Komentarze


Brak komentarzy...


Wstecz